Баги на Samsung

Особенности работы приложения на телевизорах Samsung
V.A.S.t
Младший лейтенант
Младший лейтенант
Posts: 9
Joined: 06 Jan 2018, 05:05
TV Model: UE65MU6100
Flag: Russia

Re: Баги на Samsung

Postby V.A.S.t » 20 Jan 2018, 05:25

Возникла та же проблема на MU серии. Не исчезает оверлей. Причем раньше помогал перезапуск приложения, теперь не помогла даже полная переустановка...

User avatar
iteleradio
Младший лейтенант
Младший лейтенант
Posts: 5
Joined: 11 Jul 2017, 20:31
TV Model: samsung tizen
Flag: Spain
Contact:

Re: Баги на Samsung

Postby iteleradio » 11 May 2018, 19:11

Привет! Удалось решить? какой кодек использовать? у нас тоже кодек aac только на ЖК показал такое. Со второго файла потока звук то исчезнет по появится. Посоветуйте..

User avatar
iteleradio
Младший лейтенант
Младший лейтенант
Posts: 5
Joined: 11 Jul 2017, 20:31
TV Model: samsung tizen
Flag: Spain
Contact:

Re: Баги на Samsung

Postby iteleradio » 11 May 2018, 19:12

lareda wrote:Вот этот AAC не работает из упомянутого:
History 2 HD

Audio #1
ID : 1
Format : AAC
Format/Info : Advanced Audio Codec
Format profile : LC
Codec ID : 40
Duration : 44 s 309 ms
Source duration : 44 s 281 ms
Bit rate mode : Variable
Bit rate : 192 kb/s
Maximum bit rate : 270 kb/s
Channel(s) : 2 channels
Channel positions : Front: L R
Sampling rate : 48.0 kHz
Frame rate : 46.875 FPS (1024 spf)
Compression mode : Lossy
Stream size : 1.00 MiB (4%)
Source stream size : 1.00 MiB (4%)
Language : English

Вот этот AAC работает из другого:
Viasat Sport HD
Audio
ID : 1
Format : AAC
Format/Info : Advanced Audio Codec
Format profile : LC
Codec ID : 40
Duration : 1 min 11 s
Source duration : 1 min 11 s
Bit rate mode : Variable
Bit rate : 132 kb/s
Maximum bit rate : 216 kb/s
Channel(s) : 2 channels
Channel positions : Front: L R
Sampling rate : 48.0 kHz
Frame rate : 46.875 FPS (1024 spf)
Compression mode : Lossy
Stream size : 1.12 MiB (3%)
Source stream size : 1.12 MiB (3%)
Language : English


Сообщение iteleradio » менее минуты назад

Привет! Удалось решить? какой кодек использовать? у нас тоже кодек aac только на ЖК показал такое. Со второго файла потока звук то исчезнет по появится. Посоветуйте..

User avatar
iteleradio
Младший лейтенант
Младший лейтенант
Posts: 5
Joined: 11 Jul 2017, 20:31
TV Model: samsung tizen
Flag: Spain
Contact:

Re: Баги на Samsung

Postby iteleradio » 11 May 2018, 19:21

Eugene wrote:Значит, используемый кодек не поддерживается платформой.


читал на сайте Samsung про ЖК-телевизоры, aac заявлен как работающий, но у нас на потоках iteleradio.ru при проигрывании на ЖК обрывы звука стихийные. В Android и Win с aac всё в порядке. Посоветуйте что делать..

User avatar
kuser
Младший лейтенант
Младший лейтенант
Posts: 3
Joined: 02 Jul 2018, 15:34
TV Model: Samsung UE39F5500
Flag: Ukraine

Re: Баги на Samsung

Postby kuser » 04 Jul 2018, 23:39

А как переключиться к предыдущему каналу (на пульте кнопка "PRE-CH")? Я не нашёл :?

V.A.S.t
Младший лейтенант
Младший лейтенант
Posts: 9
Joined: 06 Jan 2018, 05:05
TV Model: UE65MU6100
Flag: Russia

Re: Баги на Samsung

Postby V.A.S.t » 15 Aug 2018, 13:36

Можно поинтересоваться, проблема с неисчезающим отверлеем как-то будет решаться? 100% не исчезает, если “свернуть» программу (переключиться на другую), а потом вернуться в ssiptv. Лечится только выходом (длительным нажатием кнопки назад) и повторным открытием.

dimidrol1980
Младший лейтенант
Младший лейтенант
Posts: 2
Joined: 19 Aug 2018, 18:40
TV Model: Ue49mu6100uxru
Flag: Belarus

Re: Баги на Samsung

Postby dimidrol1980 » 19 Aug 2018, 18:54

Здравствуйте, скажите, вот я установил приложение на samsung ue49mu6100uxru, выбрал своего провайдера, зашёл в список каналов, а они не воспроизводятся, на samsung ue22h5600ak и на телефоне xiaomi идут без проблем. В чём причина?

matrixzona
Младший лейтенант
Младший лейтенант
Posts: 1
Joined: 11 Nov 2013, 15:32
TV Model: Samsung JU7000
Flag: Russia

Re: Баги на Samsung

Postby matrixzona » 13 Nov 2018, 15:18

Дома есть старенький LG LN570 и Samsung 2015 года модель ju7000. На LG c плейлистом от ttv через ace stream в SS-IPTV всё нормально без зависаний, даже HD каналы не запинаются, а вот с самсунгом и не знаю что делать, не в какую не хочет... Запускаю какой нибудь канал из этого плэй листа, изображение появляется на 2 секунды и всё и замирает и не важно hd канал или sd. Подскажите в чём может быть дело? Обычное IPTV вроде нормально показывает.


Return to “SS IPTV для Samsung Smart TV”

Who is online

Users browsing this forum: No registered users and 2 guests