На многих каналах нет звука

Обсуждение ошибок, помощь в решении проблем.
Post Reply
User avatar
mastan
Ensign
Ensign
Posts: 3
Joined: 30 Dec 2018, 14:30
TV Model: LG 55SK8500PLA
Russia

На многих каналах нет звука

Post by mastan »

Модель телевизора - LG 55SK8500PLA

Провайдер - Альфа Нет Телеком, Москва

Device ID - 7424902

На многих каналах нет звука в SS IPTV. При проигрывании в VLC на всех каналах звук есть.

На следующих каналах звука нет:
24
26-30
33-55
57-96
98-102
(и далее - изредка есть, на большинстве нет)

Вот информация о кодеках в некоторых потоках:

http://p243.i-vdom.ru:7088/channel/235.3.4.3:1234 Матч ТВ - звук есть
Матч ТВ.png
http://P277.i-vdom.ru:7088/channel/235.3.4.150:1234 Матч ТВ HD - звука нет
Матч ТВ HD.png
http://P277.i-vdom.ru:7088/channel/235.3.4.30:1234 РБК - звука нет
РБК.png
P.S.
MediaInfo показывает разницу в ID и Codec ID(запись из VLC).

Звука нет:
Audio #1
ID : 8002 (0x1F42)
Menu ID : 2204 (0x89C)
Format : MPEG Audio
Format version : Version 1
Format profile : Layer 2
Codec ID : 4
Duration : 3 s 432 ms
Bit rate mode : Constant
Bit rate : 192 kb/s
Channel(s) : 2 channels
Sampling rate : 48.0 kHz
Frame rate : 41.667 FPS (1152 SPF)
Compression mode : Lossy
Delay relative to video : -612 ms
Stream size : 80.4 KiB (2%)
Language : Russian
Звук есть:
Audio
ID : 1022 (0x3FE)
Menu ID : 103 (0x67)
Format : MPEG Audio
Format version : Version 1
Format profile : Layer 2
Codec ID : 3
Duration : 4 s 896 ms
Bit rate mode : Constant
Bit rate : 192 kb/s
Channel(s) : 2 channels
Sampling rate : 48.0 kHz
Frame rate : 41.667 FPS (1152 SPF)
Compression mode : Lossy
Delay relative to video : -847 ms
Stream size : 115 KiB (5%)
Language : Russian

User avatar
mastan
Ensign
Ensign
Posts: 3
Joined: 30 Dec 2018, 14:30
TV Model: LG 55SK8500PLA
Russia

Re: На многих каналах нет звука

Post by mastan »

Не пойму, где что изменилось, но звук на тех каналах теперь есть.
SS-IPTV не менялся, сборка от 2020-07-10, кодеки и айдишники все те же.

Post Reply